Main » 2014 » February » 9 » Super Bowl 2014 World Feed 1080i HDTV 50 Mbps MPA2.0 4-2-2 MPEG2-TrollHD
7:17 PM
Super Bowl 2014 World Feed 1080i HDTV 50 Mbps MPA2.0 4-2-2 MPEG2-TrollHD
Super Bowl 2014 World Feed 1080i HDTV 50 Mbps MPA2.0 4-2-2 MPEG2-TrollHD





Format : MPEG-TS at 56.4 Mbps
Length : 117 GiB for 4h 56mn 58s 836ms

Video #0 : MPEG Video at 50.5 Mbps
Aspect : 1920 x 1080 (1.778) at 29.970 fps

Audio #0 : MPEG Audio at 384 Kbps
Infos : 2 channels, 48.0 KHz

Audio #1 : MPEG Audio at 384 Kbps
Infos : 2 channels, 48.0 KHz

Audio #2 : MPEG Audio at 384 Kbps
Infos : 2 channels, 48.0 KHz

Audio #3 : MPEG Audio at 384 Kbps
Infos : 2 channels, 48.0 KHz

Audio #4 : MPEG Audio at 384 Kbps
Infos : 2 channels, 48.0 KHz

Audio #5 : MPEG Audio at 384 Kbps
Infos : 2 channels, 48.0 KHz

Audio #6 : MPEG Audio at 384 Kbps
Infos : 2 channels, 48.0 KHz

Audio #7 : MPEG Audio at 384 Kbps
Infos : 2 channels, 48.0 KHz

Text #0 : EIA-708
Language : en

TrollHD

Bruno Mars - Locked Out of Heaven
Bruno Mars - Treasure
Bruno Mars - Runaway Baby
Red Hot Chili Peppers - Give It Away


Format : MPEG-TS
File size : 117 GiB
Duration : 4h 56mn
Overall bit rate mode : Variable
Overall bit rate : 56.4 Mbps

Video
ID : 408 (0x198)
Menu ID : 1 (0x1)
Format : MPEG Video
Format version : Version 2
Format profile : 4:2:2@High
Format settings, BVOP : No
Format settings, Matrix : Custom
Format settings, GOP : N=15
Codec ID : 2
Duration : 4h 56mn
Bit rate mode : Variable
Bit rate : 50.5 Mbps
Maximum bit rate : 53.8 Mbps
Width : 1 920 pixels
Height : 1 080 pixels
Display aspect ratio : 16:9
Frame rate : 29.970 fps
Color space : YUV
Chroma subsampling : 4:2:2
Bit depth : 8 bits
Scan type : Interlaced
Scan order : Top Field First
Compression mode : Lossy
Bits/(Pixel*Frame) : 0.812
Time code of first frame : 23:47:18;02
Time code source : Group of pictures header
Stream size : 105 GiB (90%)
Color primaries : BT.709
Transfer characteristics : BT.709
Matrix coefficients : BT.709

Audio #1
ID : 452 (0x1C4)
Menu ID : 1 (0x1)
Format : MPEG Audio
Format version : Version 1
Format profile : Layer 2
Mode extension : Intensity Stereo + MS Stereo
Codec ID : 3
Duration : 4h 56mn
Bit rate mode : Constant
Bit rate : 384 Kbps
Channel(s) : 2 channels
Sampling rate : 48.0 KHz
Compression mode : Lossy
Delay relative to video : -465ms
Stream size : 816 MiB (1%)

Audio #2
ID : 453 (0x1C5)
Menu ID : 1 (0x1)
Format : MPEG Audio
Format version : Version 1
Format profile : Layer 2
Mode extension : Intensity Stereo + MS Stereo
Codec ID : 3
Duration : 4h 56mn
Bit rate mode : Constant
Bit rate : 384 Kbps
Channel(s) : 2 channels
Sampling rate : 48.0 KHz
Compression mode : Lossy
Delay relative to video : -417ms
Stream size : 816 MiB (1%)

Audio #3
ID : 454 (0x1C6)
Menu ID : 1 (0x1)
Format : MPEG Audio
Format version : Version 1
Format profile : Layer 2
Mode extension : Intensity Stereo + MS Stereo
Codec ID : 3
Duration : 4h 56mn
Bit rate mode : Constant
Bit rate : 384 Kbps
Channel(s) : 2 channels
Sampling rate : 48.0 KHz
Compression mode : Lossy
Delay relative to video : -465ms
Stream size : 816 MiB (1%)

Audio #4
ID : 455 (0x1C7)
Menu ID : 1 (0x1)
Format : MPEG Audio
Format version : Version 1
Format profile : Layer 2
Mode extension : Intensity Stereo + MS Stereo
Codec ID : 3
Duration : 4h 56mn
Bit rate mode : Constant
Bit rate : 384 Kbps
Channel(s) : 2 channels
Sampling rate : 48.0 KHz
Compression mode : Lossy
Delay relative to video : -465ms
Stream size : 816 MiB (1%)

Audio #5
ID : 456 (0x1C8)
Menu ID : 1 (0x1)
Format : MPEG Audio
Format version : Version 1
Format profile : Layer 2
Mode extension : Intensity Stereo + MS Stereo
Codec ID : 3
Duration : 4h 56mn
Bit rate mode : Constant
Bit rate : 384 Kbps
Channel(s) : 2 channels
Sampling rate : 48.0 KHz
Compression mode : Lossy
Delay relative to video : -465ms
Stream size : 816 MiB (1%)

Audio #6
ID : 457 (0x1C9)
Menu ID : 1 (0x1)
Format : MPEG Audio
Format version : Version 1
Format profile : Layer 2
Mode extension : Intensity Stereo + MS Stereo
Codec ID : 3
Duration : 4h 56mn
Bit rate mode : Constant
Bit rate : 384 Kbps
Channel(s) : 2 channels
Sampling rate : 48.0 KHz
Compression mode : Lossy
Delay relative to video : -393ms
Stream size : 816 MiB (1%)

Audio #7
ID : 458 (0x1CA)
Menu ID : 1 (0x1)
Format : MPEG Audio
Format version : Version 1
Format profile : Layer 2
Mode extension : Intensity Stereo + MS Stereo
Codec ID : 3
Duration : 4h 56mn
Bit rate mode : Constant
Bit rate : 384 Kbps
Channel(s) : 2 channels
Sampling rate : 48.0 KHz
Compression mode : Lossy
Delay relative to video : -393ms
Stream size : 816 MiB (1%)

Audio #8
ID : 459 (0x1CB)
Menu ID : 1 (0x1)
Format : MPEG Audio
Format version : Version 1
Format profile : Layer 2
Mode extension : Intensity Stereo + MS Stereo
Codec ID : 3
Duration : 4h 56mn
Bit rate mode : Constant
Bit rate : 384 Kbps
Channel(s) : 2 channels
Sampling rate : 48.0 KHz
Compression mode : Lossy
Delay relative to video : -393ms
Stream size : 816 MiB (1%)

Text
ID : 408 (0x198)-1
Menu ID : 1 (0x1)
Format : EIA-708
Muxing mode : A/53 / DTVCC Transport
Muxing mode, more info : Muxed in Video #1
Duration : 4h 56mn
Bit rate mode : Constant
Stream size : 0.00 Byte (0%)
Language : English

Menu
ID : 32 (0x20)
Menu ID : 1 (0x1)
List : 408 (0x198) (MPEG Video) / 452 (0x1C4) (MPEG Audio) / 453 (0x1C5) (MPEG Audio) / 454 (0x1C6) (MPEG Audio) / 455 (0x1C7) (MPEG Audio) / 456 (0x1C8) (MPEG Audio) / 457 (0x1C9) (MPEG Audio) / 458 (0x1CA) (MPEG Audio) / 459 (0x1CB) (MPEG Audio)
Service name :
Service provider : Generated by TSReader 2.8.46b on 2014/02/02 16:55
Service type : digital television

MPEG2Repair

Sequence Frame 534019(3-P) / Time 4:56:58 :
Info: End of MPEG2 sequence

Sequence Summary:

File Size Processed: 116.93 GB, Play Time: 04h:56m:58s
1920 x 1080, 29.97 fps, 53.80 Mbps (51.85 Mbps Average).
Average Video Quality: 211.18 KB/Frame, 0.83 Bits/Pixel.
MPEG Audio.
8 of 534019 video frames found with errors.
0 of 0 audio frames found with errors.
185164 corrupted video bytes in file.
0.000000 seconds of video timestamp gaps.
0.000000 seconds of audio timestamp gaps.
Views: 426 | Added by: mmg1818 | Tags: Super Bowl 2014 World Feed 1080i HD | Rating: 0.0/0
Total comments: 0
Only registered users can add comments.
[ Registration | Login ]