Main » 2013 » July » 21 » Rihanna.T.in.the.Park.2013.H264.422.1080i.39Mbps-aB
9:04 PM
Rihanna.T.in.the.Park.2013.H264.422.1080i.39Mbps-aB
Rihanna.T.in.the.Park.2013.H264.422.1080i.39Mbps-aB



Format : MPEG-TS at 40.3 Mbps
Length : 4.37 GiB for 15mn 30s 63ms

Video #0 : AVC at 38.1 Mbps
Aspect : 1920 x 1080 (1.778) at 25.000 fps

Audio #0 : MPEG Audio at 256 Kbps
Infos : 2 channels, 48.0 KHz

aB

Code

  ___ __ __ __ __  
  / _ \/ / ___ / /________ _/ /__/ /_  
  / _ / _ \(_-</ __/ __/ _ `/ '_/ __/  
  /_//_/_.__/___/\__/_/ \_,_/_/\_\\__/  

  Rihanna - T in the Park 2013
  Balado, Kinross, Scotland - July 13th, 2013

  NOTE: Video is 10-bit 4:2:2 H.264. Hardware playback or GPU acceleration is not
  possible for this profile. A quad core CPU is recommended for smooth playback.

  File Size Processed: 4.37 GB, Play Time: 00h:15m:29s
  50.03 FPS (Average), 39.13 Mbps (Average).
  MPEG Audio.
  0 of 0 audio frames found with errors.
  0.000000 seconds of audio timestamp gaps.

  General
  ID : 1 (0x1)
  Complete name : Rihanna.T.in.the.Park.2013.H264.422.1080i.39Mbps-aB.ts
  Format : MPEG-TS
  File size : 4.37 GiB
  Duration : 15mn 30s
  Overall bit rate : 40.3 Mbps

  Video
  ID : 412 (0x19C)
  Menu ID : 1 (0x1)
  Format : AVC
  Format/Info : Advanced Video Codec
  Format profile : High 4:2:2@L4.1
  Format settings, CABAC : Yes
  Format settings, ReFrames : 4 frames
  Codec ID : 27
  Duration : 15mn 29s
  Bit rate : 38.1 Mbps
  Width : 1 920 pixels
  Height : 1 080 pixels
  Display aspect ratio : 16:9
  Frame rate : 25.000 fps
  Color space : YUV
  Chroma subsampling : 4:2:2
  Bit depth : 10 bits
  Scan type : Interlaced
  Scan order : Top Field First
  Bits/(Pixel*Frame) : 0.734
  Stream size : 4.12 GiB (94%)
  Color primaries : BT.709-5, BT.1361, IEC 61966-2-4, SMPTE RP177
  Transfer characteristics : BT.709-5, BT.1361
  Matrix coefficients : BT.709-5, BT.1361, IEC 61966-2-4 709, SMPTE RP177

  Audio
  ID : 750 (0x2EE)
  Menu ID : 1 (0x1)
  Format : MPEG Audio
  Format version : Version 1
  Format profile : Layer 2
  Mode : Dual mono
  Codec ID : 4
  Duration : 15mn 30s
  Bit rate mode : Constant
  Bit rate : 256 Kbps
  Channel(s) : 2 channels
  Sampling rate : 48.0 KHz
  Compression mode : Lossy
  Delay relative to video : -651ms
  Stream size : 28.4 MiB (1%)
  Language : English

  Menu
  ID : 228 (0xE4)
  Menu ID : 1 (0x1)
  List : 412 (0x19C) (AVC) / 750 (0x2EE) (MPEG Audio, English)
  Language : / English
  Maximum bit rate : 200000000
Views: 608 | Added by: mmg1818 | Tags: Rihanna.T.in.the.Park.2013.H264.422 | Rating: 0.0/0
Total comments: 0
Only registered users can add comments.
[ Registration | Login ]