[ New messages · Members · Forum rules · Search · RSS ]
Page 1 of 11
Forum mmg1818 » Anything » Movie » Captain Phillips 2013 WEBRip x264 AC3-MiLLENiUM
Captain Phillips 2013 WEBRip x264 AC3-MiLLENiUM
mmg1818Date: Monday, 02 Dec 2013, 7:00 PM | Message # 1
Group: Administrators
Messages: 2341
Awards: 73
Reputation: 1000
Status: Offline


Captain Phillips 2013 WEBRip x264 AC3-MiLLENiUM

General

Source...............: 720p.HDR6.AC3.H264-N.E.T.ism [THANKS]
IMDb Information.... : http://www.imdb.com/title/tt1535109/
Sample Included......: yes
Subtitles............: Chinese Hardcoded throughout

General
Complete name : Captain Phillips 2013 WEBRip x264 AC3-MiLLENiUM.mkv
Format : Matroska
Format version : Version 2
File size : 1.06 GiB
Duration : 2h 13mn
Overall bit rate mode : Variable
Overall bit rate : 1 136 Kbps
Encoded date : UTC 2013-11-29 15:13:41
Writing application : mkvmerge v6.5.0 ('Isn't she lovely') built on Oct 20 2013 12:50:05
Writing library : libebml v1.3.0 + libmatroska v1.4.1

Video
ID : 1
Format : AVC
Format/Info : Advanced Video Codec
Format profile : High@L4.1
Format settings, CABAC : Yes
Format settings, ReFrames : 3 frames
Codec ID : V_MPEG4/ISO/AVC
Duration : 2h 13mn
Bit rate mode : Variable
Bit rate : 730 Kbps
Maximum bit rate : 40.0 Mbps
Width : 720 pixels
Height : 384 pixels
Display aspect ratio : 1.85:1
Frame rate mode : Constant
Frame rate : 30.000 fps
Color space : YUV
Chroma subsampling : 4:2:0
Bit depth : 8 bits
Scan type : Progressive
Bits/(Pixel*Frame) : 0.088
Stream size : 698 MiB (64%)
Writing library : x264 core 140 r2377 1ca7bb9

Audio
ID : 2
Format : AC-3
Format/Info : Audio Coding 3
Mode extension : CM (complete main)
Format settings, Endianness : Big
Codec ID : A_AC3
Duration : 2h 13mn
Bit rate mode : Constant
Bit rate : 384 Kbps
Channel(s) : 2 channels
Channel positions : Front: L R
Sampling rate : 48.0 KHz
Bit depth : 16 bits
Compression mode : Lossy
Delay relative to video : 7ms
Stream size : 367 MiB (34%)
Language : English
Default : Yes
Forced : No

Plot

The true story of Captain Richard Phillips and the 2009 hijacking by Somali pirates of the US-flagged MV Maersk Alabama, the first American cargo ship to be hijacked in two hundred years.

Screenshots








Greetz

To all those who stay true to the game.


mmg1818™

donate via pay-pal

https://www.paypal.com/cgi-bin/webscr?cmd=_s-xclick&hosted_button_id=52LNJ2PTG9BCC
Forum mmg1818 » Anything » Movie » Captain Phillips 2013 WEBRip x264 AC3-MiLLENiUM
Page 1 of 11
Search:

Statistics Forum
Recent Posts Readable topic Top Users New User
  • Helene Fischer - Ihre neuen Songs (Das Konzert im Münchner (0)
  • Ariana Grande - Side to Side (One Love Manchester 04.06.2017 (0)
  • Tina Fey - Interview (Tonight Show Starring Jimmy Fallon (0)
  • RTL Boxen Joshua vs Klitschko Die Weltmeisterschaft im (0)
  • Emma Watson - Interview (Tonight Show Starring Jimmy Fallon (0)
  • B4U Satellite settings (0)
  • ECHO 2017 - Der Deutsche Musikpreis (0)
  • Viva Forever - The Spice Girls (RSI LA 2 HD ita 04.05.2017) (0)
  • AT&T Block Party at Margaret T. Hance Park, Phoenix, AZ, (0)
  • Stayin' Alive - A Grammy Salute to the Music of the Bee Gees (0)
  • Filepost, Wupload, Fileserve, Filesonic, Uploadstation. (275)
  • American Idol (HD-1080i) (16)
  • Katy Perry - I Kissed a Girl (SYTYCD So You Think You Can (9)
  • Jennifer Lopez & Cameron Diaz - Interview (Ellen DeGeneres (7)
  • Celine Dion - Ne Me Quitte Pas (BAMBI Das Erste 22.11.2012) (7)
  • Windows 8 (6)
  • Jennifer Lopez (The Sound Of Change - 1080i - MPEG2 - 30Mbps (6)
  • Beyoncé (The Sound Of Change - 1080i - MPEG2 - 30Mbps - 2013 (6)
  • Windows 8.1 (6)
  • Google play (6)
  • mmg1818
  • mvlmoraes
  • erickduarte86
  • New0
  • taylorlover
  • terisha
  • Zink25
  • tetard
  • ghuanaco0684
  • leafar1912
  • BLACK_KNIGH
  • luo518999
  • Lofec
  • DonTango
  • lights
  • jk
  • 3veronicas
  • blue
  • dumpling
  • Je@s
  • miguelmr87
  • andrevee71
  • 1indio1
  • HdHunt
  • piehr
  • MaEdCo
  • smaszi
  • BrazilianMilk
  • antondmp
  • krautlich
  • elmerthebigboss
  • perster
  • vitorspears
  • Osh_Sharif
  • namkent
  • abu_mo7mad
  • nomiza1979
  • Wazowski
  • spymaster
  • ferver
  • artikadjs
  • gnoober68
  • Milwoki
  • bornthsway
  • wordpain
  • esra_34
  • Tweety
  • mg224248
  • Divasfan
  • chadiedls
  • yhn_svtp
  • KaiKawaii_
  • iglicufaj
  • keikinhabq
  • silentalmafia
  • vitormarcio_
  • esteenhoek
  • mailvoordave
  • exchocka
  • mentaltheo
  • jlovers
  • peter10119
  • stevvvve
  • jansyryca
  • azwaan
  • Samguppy
  • msandao
  • f20110402
  • Emilie
  • tralalalaa82
  • hacklier
  • digisin
  • dookodlibra
  • trinigirlminaj
  • cquiros76
  • alexandrakaercher
  • commander-bezi
  • eduaguilar640
  • sayanjana17021994
  • magic_ebuyer
  • vlachipoff
  • staceymccarthybth
  • xavierroybois
  • marryparis
  • rauno666907
  • maxdoeit
  • 1190134
  • anhaki9
  • frm86358
  • bertbertlowsk
  • ahmed_peace
  • millennium2018
  • 547409595
  • h0444rap
  • rtyu134567890
  • EvilTwin505
  • stewardleesiuhung
  • jskulesa
  • aagreag_raeh5h5
  • zdark9